Soulblighter cutscenes...

A forum for discussing map making ideas and problems for the Myth series.

Moderator: Doobie

Soulblighter cutscenes...

Postby Khellek » Mon Apr 10, 2017 4:33 pm

Is there a "best format" and what is the maximum resolution allowed...or is there only one resolution?

Thanx
There can be only one...
User avatar
Khellek
 
Posts: 124
Joined: Mon Jun 07, 2004 2:29 am

Re: Soulblighter cutscenes...

Postby Melekor » Thu Apr 13, 2017 7:23 am

Resolution - The game cutscenes are 640x264, although in theory I think anything up to 640x480 should be compatible with the game. Larger than 640 or 480 will not work.

Format - For compatibility with all versions of the game (windows, mac, linux), you should use the .mov container with a compatible encoding format and profile. I believe that Windows is the most restricted platform, so if your file plays back on windows it should play back on the others too.

Here is an example of the format info for the epilogue cutscene:

Code: Select all
General
Complete name                  : D:\myth2\cutscenes\epilogue.mov
Format                         : QuickTime
Format/Info                    : Original Apple specifications
File size                      : 25.0 MiB
Duration                       : 49s 667ms
Overall bit rate               : 4 227 Kbps
Encoded date                   : UTC 2004-12-26 19:16:21
Tagged date                    : UTC 2004-12-26 19:16:46
Writing library                : Apple QuickTime

Video
ID                             : 2
Format                         : MPEG-4 Visual
Format profile                 : Advanced Simple@L3
Format settings, BVOP          : Yes
Format settings, QPel          : No
Format settings, GMC           : No warppoints
Format settings, Matrix        : Default (H.263)
Codec ID                       : 20
Duration                       : 49s 667ms
Bit rate                       : 2 815 Kbps
Width                          : 640 pixels
Height                         : 264 pixels
Display aspect ratio           : 2.40:1
Frame rate mode                : Constant
Frame rate                     : 15.000 fps
Color space                    : YUV
Bit depth                      : 8 bits
Scan type                      : Progressive
Compression mode               : Lossy
Bits/(Pixel*Frame)             : 1.111
Stream size                    : 16.7 MiB (67%)
Language                       : English
Encoded date                   : UTC 2004-12-26 19:16:21
Tagged date                    : UTC 2004-12-26 19:16:46
Transfer characteristics       : BT.601
Matrix coefficients            : BT.601

Audio
ID                             : 1
Format                         : PCM
Format settings, Endianness    : Big
Format settings, Sign          : Signed
Codec ID                       : twos
Duration                       : 49s 665ms
Bit rate mode                  : Constant
Bit rate                       : 1 411.2 Kbps
Channel(s)                     : 2 channels
Sampling rate                  : 44.1 KHz
Bit depth                      : 16 bits
Stream size                    : 8.36 MiB (33%)
Language                       : English
Encoded date                   : UTC 2004-12-26 19:16:21
Tagged date                    : UTC 2004-12-26 19:16:46

User avatar
Melekor
Site Admin
 
Posts: 2081
Joined: Sat May 01, 2004 12:10 am
Location: British Columbia

Re: Soulblighter cutscenes...

Postby Khellek » Thu Apr 13, 2017 10:38 am

Awesome!

Thanx Mel
There can be only one...
User avatar
Khellek
 
Posts: 124
Joined: Mon Jun 07, 2004 2:29 am


Return to Map Making Support

Who is online

Users browsing this forum: No registered users and 2 guests